تبلیغات
BIG4U نرم افزار روز.دانلود نرم افزار آموزش کامپیوتر-کتاب الکترونیک-موبایل - داستان - مطالب فیلم هندی
BIG4U نرم افزار روز.دانلود نرم افزار آموزش کامپیوتر-کتاب الکترونیک-موبایل - داستان
می روم با کشتی عشق به سوی سرنوشت ...... یا به عشقت میرسم یا غرق دنیا می شوم

مرتبه
تاریخ : شنبه 11 دی 1389


Break Ke Baad (2010) - 1CD - DVDRip - XviD - Msubs [DDR]







Source..............- DVD9 [DDR]
Ripper..............- -=KaMaL=-
Release Date........- 22/12/2010
Runtime.............- 1:52:41
Resolution..........- 640 x 272
Framerate...........- 23.976 FPS
Disks...............- 1CD
Size................- 698 MB

Video Codec.........- XviD
Video Bitrate.......- 765 Kb/s
Audio Info..........- 96Kbps MP3 ABR
Audio Language......- Hindi
Subtitles...........- English,

Container...........- AVI



Credit To -=KaMaL=- DDR

Uploader Kamran444


















Sample


Code:
http://www.multiupload.com/WFZ6V6VJR2




ادامه مطلب
طبقه بندی: فیلم هندی، 

Code:
Rip Details:

Cast: mran Khan, Deepika Padukone, Shahana Goswami, Yudhishtr Urs, Sharmila Tagore, Navin Nischol & Others
Genre: Love
Story - Screenplay - Direction: Danish Aslam
Release Date: November 26th, 2010
Review: Click Here

Ripper: The King @ TeamTolly
Source: DVD9  ICTV (Thanks)

Container: MKV
Rip Size: 2.18 GB
 
Resolution: 1280 x 544
Run Time: 1h 52m 42s
Sample: 720p - X264 Sample
 
Video Codec: X264 @ 2 518 Kbps
Frame Rate: 23.976

Audio Format: AAC - LC - 256 kbps - 6 Channels @ 48000 Hz
Subtitles: English (Muxed)
Chapters: Available (Muxed)

Ripper Notes:
Enjoy! Please seed after downloading atleast upto 1:1 ratio.


ادامه مطلب
طبقه بندی: فیلم هندی، 

Break Ke Baad (2010) - Untouched - DvD 9 - NTSC - Team IcTv Exclusive



Code:
Cast : Imran Khan, Deepika Padukone, Sharmila Tagore, Shahana Goswami more...
Director: Danish Aslam
Producer: Kunal Kohli
Written by: Danish Aslam , Renuka Kunzru
Genre: Romance
Language: Hindi
Release date : Nov 26, 2010
Source : Untouched Dvd9 by PeTA @ Team IcTv
Size : 7.14 GB

All Credits To Team IcTv


ادامه مطلب
طبقه بندی: فیلم هندی، 
مرتبه
تاریخ : شنبه 11 دی 1389
Code:
General
Format : MPEG-PS
File size : 1 024 MiB
Duration : 2h 50mn
Overall bit rate : 6 378 Kbps

Video
ID : 224 (0xE0)
Format : MPEG Video
Format version : Version 2
Format profile : Main@Main
Format settings, BVOP : Yes
Format settings, Matrix : Default
Format settings, GOP : M=3, N=13
Duration : 2h 50mn
Bit rate mode : Variable
Bit rate : 5 803 Kbps
Nominal bit rate : 9 000 Kbps
Width : 720 pixels
Height : 480 pixels
Display aspect ratio : 4:3
Frame rate : 23.976 fps
Standard : NTSC
Color space : YUV
Chroma subsampling : 4:2:0
Bit depth : 8 bits
Scan type : Progressive
Scan order : 2:3 Pulldown
Bits/(Pixel*Frame) : 0.700
Stream size : 931 MiB (91%)

Audio
ID : 128 (0x80)
Format : AC-3
Format/Info : Audio Coding 3
Mode extension : CM (complete main)
Duration : 2h 50mn
Bit rate mode : Constant
Bit rate : 448 Kbps
Channel(s) : 6 channels
Channel positions : Front: L C R, Side: L R, LFE
Sampling rate : 48.0 KHz
Bit depth : 16 bits
Video delay : -355ms
Stream size : 71.9 MiB (7%)











ادامه مطلب
طبقه بندی: فیلم هندی، 
مرتبه
تاریخ : یکشنبه 30 فروردین 1388



ادامه مطلب
طبقه بندی: فیلم هندی، 
مرتبه
تاریخ : شنبه 29 فروردین 1388

http://thenetweaver.com/bis/wp-content/uploads/2008/12/rab1.jpg

Rab Ne Bana Di Jodi 2008 DvDRip
Shahrukh Khan ... Surinder 'Suri' Sahni / Raj Kapoor
Vinay Pathak ... Balwinder Khosla
Anushka Sharma ... Taani
M.K. Raina ... Taani's father
Manmeet Singh ... Raju mechanic



ادامه مطلب
طبقه بندی: فیلم هندی، 
مرتبه
تاریخ : جمعه 6 دی 1387

wallpapers pictures

Info: http://www.imdb.com/title/tt1185420/

Straight friends Kunal and Sameer pretend to be a gay couple to secure a nice Miami apartment.

But this lands them in a fix when they both fall for their gorgeous neighbour Neha.



download
طبقه بندی: فیلم هندی، 
مرتبه
تاریخ : سه شنبه 3 دی 1387
Movie Name : Om Shanti Om
Year of Release : 2007
Release Date : 9 November 2007
Genre : Comedy, Romance

Presenter : Red Chillies Entertainment
Producer : Gauri Khan
Executive Producer : Sanjiv Chawla


Director : Farah Khan
Cast : Shah Rukh Khan, Deepika Padukone, Shreyas Talpade, Kiron Kher, Malaika Arora, Javed Shaikh, Arjun Rampal, Zayed Khan, Arbaaz Khan, Dino Morea, Bindu, Satish Shah, Yuvika Chaudary, Shawar Ali, Asawari Joshi
Special Appearance : Vishal Dadlani, Rishi Kapoor, Subhash Ghai, Karan Johar, Amitabh Bachchan, Abhishek Bachchan, Hrithik Roshan, Rani Mukherjee, Preity Zinta
Music Director : Vishal Dadlani, Shekhar Ravjiani
Lyricist : Javed Akhtar
Story Writer : Farah Khan
Dialogue Writer : Mayur Puri
Screenplay Writer : Farah Khan, Mushtaq Sheikh
Editor : Shirish Kunder
Art Director : Sabu Cyril
Action Director : Shyam Kaushal, Amar Shetty
Costume Designer : Manish Malhotra, Karan Johar, Sanjeev Mulchandani
Sound Designer : Nakul Kamte
Background Sound : Sandeep Chowta
Choreographer : Farah Khan
Playback Singer : Shah Rukh Khan
Publicity Designer : Marching Ants
Photographer : V. Manikandan
Visual Effects : Red Chillies Entertainment
Associate Director : Vaibhav Misra
First Assistant Director : Joyeeta Chatterjee

Synopsis :
This is a story of Om and Shanti. His film started in 1977 and ended in 2007. He was a Junior Artist in the 70s. She was a Superstar of the 70s. He was her biggest fan. She was his biggest inspiration. He was madly in love. She was waiting for love. He wanted to be a superstar. She wanted to be a girl next door. He was ready to give up all his dreams for love. She was ready to give up everything she had for love. He felt betrayed in life. She felt betrayed in love. And then &started the saga of Om Shanti Om For some love stories one life time is not enough&




mor info
طبقه بندی: فیلم هندی، 
مرتبه
تاریخ : سه شنبه 3 دی 1387
Release Date
March 7, 2008
Language
Hindi

Genre
Shooting Locations (City & Country)
Mumbai (India)
Delhi (India)
India

Shooting Studios
Filmcity
Kamal Amrohi

Producer
Subhash Ghai

Director
Subhash Ghai

Star Cast
Anil Kapoor...... Professor Rajan Mathur
Anurag Sinha...... Numer Qazi
Shefali Chhaya...... Roma Mathur
Aditi Sharma
Habib Tanvir
Akash Khurana
Sai Tamhankar
Jamini Pathak

Language: Hindi
Size: 700 MB
Codec : XviD
Subtitles : EnGlish,German,Spanish,French
Runtime : Full Movie (2h.05m.45s)
DVD Source



mor info
طبقه بندی: فیلم هندی، 
مرتبه
تاریخ : سه شنبه 3 دی 1387
love songs hindi movie 

mor info
طبقه بندی: فیلم هندی، 
(تعداد کل صفحات:2)      [1]   [2]  

آرشیو مطالب
نظر سنجی
چرا خدا عشق را بوجود اورد؟











صفحات جانبی
<بcb:loop_extrapage>
پیوند های روزانه
امکانات جانبی




--- ---- ---- ---- ---- ---- ---- ---- -----

ابزار وبلاگ

قالب وبلاگ